Forum général.cherche-logiciel Montage Vidéo 1080p

Posté par .
Tags : aucun
1
5
jan.
2010
Bonjour,

Je me casse la tête depuis un petit moment pour effectuer un montage vidéo, et je n'y arrive pas comme je le souhaiterais.

Mes fichiers sources sont en AVC (1080i à 59.94fps)
Exemple de données MediaInfo sur un des fichiers :
General
Complete name : SANY0032.MP4
Format : MPEG-4
Format profile : Base Media / Version 2
Codec ID : mp42
File size : 69.5 MiB
Duration : 47s 881ms
Overall bit rate : 12.2 Mbps
Movie name/More : SANYO DIGITAL CAMERA HD1000
Origin : Digital Camera

Video
ID : 1
Format : AVC
Format/Info : Advanced Video Codec
Format profile : Main@L4.0
Format settings, CABAC : No
Format settings, ReFrames : 2 frames
Codec ID : avc1
Codec ID/Info : Advanced Video Coding
Duration : 47s 881ms
Bit rate mode : Variable
Bit rate : 12.0 Mbps
Width : 1 920 pixels
Height : 1 080 pixels
Display aspect ratio : 16:9
Frame rate mode : Constant
Frame rate : 59.940 fps
Original frame rate : 29.970 fps
Resolution : 24 bits
Colorimetry : 4:2:0
Scan type : Progressive
Bits/(Pixel*Frame) : 0.097
Stream size : 68.5 MiB (99%)
Language : English

Audio
ID : 2
Format : AAC
Format/Info : Advanced Audio Codec
Format version : Version 4
Format profile : LC
Format settings, SBR : No
Codec ID : 40
Duration : 47s 872ms
Bit rate mode : Variable
Bit rate : 128 Kbps
Maximum bit rate : 192 Kbps
Channel(s) : 2 channels
Channel positions : L R
Sampling rate : 48.0 KHz
Resolution : 16 bits
Stream size : 745 KiB (1%)
Language : English


Je souhaiterais effectuer un montage vidéo avec le moins de perte de qualité possible et en ayant une vidéo dés-entrelacée.

Les deux logiciels que je souhaite utiliser sont Cinelerra ou Kdenlive car ils correspondent à mes attentes en terme de montage vidéo : plusieurs pites, transitions vidéos etc.
J'ai également essayé : PitiVi (il manque les transitions), OpenShot Video (plante sans arrêt quand il se lance) et Kino (pas le type d'interface que je souhaite).

J'ai donc fait mon choix logiciel, mais j'ai cependant un léger soucis : dans quel format et avec quels paramètres dois-je transcoder mes rush originaux pour qu'ils soient utilisables dans ces logiciels ?

J'ai bien essayé le x264 dans de l'AVI, mais Kdenlive plante sans arrêt et Cinelerra (CV et HV) ne reconnait que la partie audio.
Mes rush ont été transcodés avec mencoder comme ceci :

i="fichier-source-avc.mp4"
j="fichier-destination-x264.avi"
mencoder $i -vf pp=ci -oac mp3lame -ovc x264 -x264encopts bitrate=10000:pass=1 -ofps 29.97 -o $j
mencoder $i -vf pp=ci -oac mp3lame -ovc x264 -x264encopts bitrate=10000:pass=2 -ofps 29.97 -o $j


Note : pour cinelerra j'ai également essayé le Quicktime avec je ne sais combien de codecs différents, mais lors du rendu j'ai vraiment un film horrible.

Dans quelques minutes je vais essayer de changer de conteneur, si quelqu'un peut partager son expérience, ou m'apporter une solution qui fonctionne, je suis preneur.
  • # elle plante beaucoup ta machine...........

    Posté par (page perso) . Évalué à 2.

    On va faire le sempiternel "chezmoiçamarche"....

    Jamais eu un seul problème d'import de rushs de quelconque formats dans kdenlive.

    et ça buggue jamais pour ça (pour d'autres trucs je dis pas ;) )

    quelle taille ont-ils ?

    quelle version de kdenlive utilises-tu ? sous quelle distrib ?
    • [^] # Re: elle plante beaucoup ta machine...........

      Posté par . Évalué à 2.

      Je suis sous Ubuntu 9.10 avec Kdenlive 0.7.6

      Mes vidéos sont en HD. J'ai testé en :
      - 1080i@59.94fps (l'AVC directement sortie du camescope), de 45 Mo à 900 Mo,
      - 1080p@29.97fps (x264 dans du AVI et dans du MPG, transcodé avec mencoder), de 40Mo à 850Mo.

      Le plus gros problème avec Kdenlive c'est qu'il n'arrive pas à me faire d'aperçu des vidéos dans les moniteurs de clips et de montage. Dans la timeline j'ai bien les vignettes vidéos.
      • [^] # Re: elle plante beaucoup ta machine...........

        Posté par . Évalué à 3.

        Je viens de faire un test sur une xubuntu 9.10 fraichement installée dans VirtualBox avec kdenlive 0.7.5 : ça marche avec n'importe quel format.

        J'ai donc soit un pb de codec (j'ai plein de dépôts additionnel dans sur mon PC : ffmpeg, gstreamer...) soit un pb lié à ma carte graphique (overlay ou autre).
        • [^] # Re: elle plante beaucoup ta machine...........

          Posté par . Évalué à 2.

          si tu trouves ca m'interesse car j'ai aussi des videos HD (Lumix TZ-7)
          que j'aimerais monter sans passer par winwin

          mais pour l'instant j'ai rien trouvé qui fonctionne vraiment.

          j'ai une carte video nvidia sur toutes mes machines, avec le driver propriétaire (3D)

Suivre le flux des commentaires

Note : les commentaires appartiennent à ceux qui les ont postés. Nous n'en sommes pas responsables.